<?xml version="1.0" standalone="no"?>
<!DOCTYPE svg PUBLIC "-//W3C//DTD SVG 1.1//EN" "http://www.w3.org/Graphics/SVG/1.1/DTD/svg11.dtd" >
<svg xmlns="http://www.w3.org/2000/svg">
<metadata></metadata>
<defs>
<font id="a_futuraortoregular" horiz-adv-x="2048" >
<font-face units-per-em="2048" ascent="1638" descent="-410" />
<missing-glyph horiz-adv-x="512" />
<glyph />
<glyph />
<glyph unicode="&#xd;" horiz-adv-x="512" />
<glyph unicode=" "  horiz-adv-x="512" />
<glyph unicode="&#x09;" horiz-adv-x="512" />
<glyph unicode="&#xa0;" horiz-adv-x="512" />
<glyph unicode="!" horiz-adv-x="646" d="M198 83q0 52 36 88.5t88 36.5q53 0 89.5 -36.5t36.5 -88.5q0 -53 -36.5 -90t-89.5 -37q-52 0 -88 37t-36 90zM234 345v1199h180v-1199h-180z" />
<glyph unicode="&#x22;" horiz-adv-x="629" d="M107 931v568h123v-568h-123zM398 931v568h124v-568h-124z" />
<glyph unicode="#" horiz-adv-x="1661" d="M151 408l42 166h283l73 364h-288l40 166h289l80 348h148l-80 -348h340l82 348h147l-80 -348h284l-40 -166h-283l-74 -364h285l-37 -166h-286l-82 -349h-148l80 349h-339l-82 -349h-149l80 349h-285zM624 573h342l75 365h-343z" />
<glyph unicode="$" horiz-adv-x="1234" d="M156 381h178q46 -225 254 -225v592q-196 92 -277.5 184.5t-81.5 220.5q0 138 108.5 246t250.5 108v103h82v-103q125 0 231 -96q103 -94 125 -221h-176q-38 153 -180 162v-459l43 -21q195 -95 273 -184q87 -100 87 -252q0 -180 -99 -295q-106 -123 -304 -141v-158h-82v158 q-169 0 -286 98q-124 103 -146 283zM405 1159q0 -133 183 -225v416q-77 0 -130 -58t-53 -133zM670 156q101 0 161 76t60 196q0 172 -221 281v-553z" />
<glyph unicode="%" horiz-adv-x="1611" d="M58 1121q0 185 84 290t234 105q151 0 235.5 -104.5t84.5 -290.5t-84.5 -290.5t-235.5 -104.5t-234.5 104t-83.5 291zM209 1123q0 -283 167 -283q168 0 168 283q0 280 -168 280q-167 0 -167 -280zM291 -41l896 1557h124l-894 -1557h-126zM914 353q0 185 84 288.5 t234 103.5q152 0 236.5 -103t84.5 -289t-85 -290t-236 -104q-150 0 -234 104t-84 290zM1067 353q0 -283 165 -283q169 0 169 284q0 281 -169 281q-165 0 -165 -282z" />
<glyph unicode="&#x26;" horiz-adv-x="1395" d="M96 387q0 138 84.5 253.5t274.5 237.5q-164 194 -164 322q0 137 111 228q103 83 239 83q156 0 242 -97q76 -85 76 -212q0 -97 -65 -182q-58 -77 -195 -176l313 -394l151 177h215l-262 -309l251 -318h-212l-159 195q-120 -129 -205 -179q-102 -61 -231 -61 q-229 0 -358 151q-106 123 -106 281zM288 387q0 -112 77 -191q80 -82 199 -82q86 0 151 40q59 38 182 164l-344 435q-149 -103 -198 -164q-67 -82 -67 -202zM476 1202q0 -106 126 -239q91 61 128 111q42 57 42 135q0 64 -37 109q-39 49 -100 49q-66 0 -109 -39 q-50 -45 -50 -126z" />
<glyph unicode="'" horiz-adv-x="361" d="M120 922v569h122v-569h-122z" />
<glyph unicode="(" horiz-adv-x="512" d="M104 629q0 577 201 1162l152 -44q-170 -618 -170 -1118q0 -499 170 -1117l-152 -44q-201 585 -201 1161z" />
<glyph unicode=")" horiz-adv-x="512" d="M55 -488q170 618 170 1117q0 500 -170 1118l152 44q201 -585 201 -1162q0 -576 -201 -1161z" />
<glyph unicode="*" horiz-adv-x="920" d="M112 1029l237 131l-236 133l66 106l227 -141l-5 272h124l-5 -270l227 139l61 -106l-230 -133l229 -130l-60 -108l-227 142l5 -268h-123l5 267l-228 -142z" />
<glyph unicode="+" horiz-adv-x="1747" d="M260 577v126h545v560h136v-560h546v-126h-546v-563h-136v563h-545z" />
<glyph unicode="," horiz-adv-x="600" d="M98 -279l152 529h233l-274 -529h-111z" />
<glyph unicode="-" horiz-adv-x="768" d="M159 431v164h450v-164h-450z" />
<glyph unicode="." horiz-adv-x="600" d="M175 101q0 53 36 89t88 36q53 0 89.5 -36t36.5 -89t-36.5 -89t-89.5 -36q-52 0 -88 36t-36 89z" />
<glyph unicode="/" horiz-adv-x="852" d="M-23 -184l730 1728h167l-731 -1728h-166z" />
<glyph unicode="0" horiz-adv-x="1234" d="M105 762q0 356 138 569t374 213t374 -213t138 -569q0 -373 -137.5 -590t-374.5 -217t-374.5 217t-137.5 590zM294 762q0 -312 85 -479q84 -163 238 -163t239 165.5t85 480.5q0 292 -85.5 452.5t-238.5 160.5t-238 -161t-85 -456z" />
<glyph unicode="1" horiz-adv-x="1234" d="M264 0v162h274v1161h-200v162h385v-1323h247v-162h-706z" />
<glyph unicode="2" horiz-adv-x="1234" d="M59 0l529 591q173 193 236 305q57 99 57 194q0 124 -83.5 207t-213.5 83q-140 0 -219.5 -95t-79.5 -266h-187v25q0 217 133 356q138 144 362 144q220 0 353 -131q126 -123 126 -312q0 -126 -73 -259q-78 -143 -276 -360l-292 -320h655v-162h-1027z" />
<glyph unicode="3" horiz-adv-x="1234" d="M81 442h186q0 -323 342 -323q146 0 234 104t88 277t-84 259q-100 103 -330 103q-23 0 -68 -3t-59 -3l365 483h-570v160h895l-397 -512q438 -50 438 -487q0 -228 -143 -384q-147 -161 -373 -161q-239 0 -381.5 134.5t-142.5 352.5z" />
<glyph unicode="4" horiz-adv-x="1234" d="M47 351l867 1202v-1047h185v-155h-185v-351h-183v351h-684zM339 506h392v565z" />
<glyph unicode="5" horiz-adv-x="1234" d="M109 340h182q29 -121 99 -170q67 -47 200 -47q317 0 317 371q0 153 -87 238t-247 85q-172 0 -370 -102l-8 8l108 762h741v-158h-593l-60 -399q111 41 215 41q219 0 356.5 -132t137.5 -345q0 -244 -142.5 -389.5t-371.5 -145.5q-189 0 -321 103q-136 106 -156 280z" />
<glyph unicode="6" horiz-adv-x="1234" d="M126 428q0 147 49 254q51 114 242 377l319 440h211l-463 -633l3 -2q70 39 159 39q197 0 328 -130.5t131 -326.5q0 -209 -140 -350t-349 -141q-213 0 -353 139q-137 136 -137 334zM314 436q0 -147 82.5 -231t219.5 -84q132 0 214.5 87t82.5 232q0 151 -82 237 q-80 83 -215 83t-218.5 -89t-83.5 -235z" />
<glyph unicode="7" horiz-adv-x="1234" d="M123 1323v162h1039l-721 -1485h-206l661 1323h-773z" />
<glyph unicode="8" horiz-adv-x="1234" d="M131 409q0 148 70.5 254t193.5 145q-101 43 -159 134.5t-58 206.5q0 171 122 283t317 112t316.5 -112t121.5 -283q0 -115 -58 -206.5t-159 -134.5q123 -39 194 -145t71 -254q0 -198 -136 -326t-350 -128t-350 128t-136 326zM321 409q0 -139 78.5 -215t217.5 -76t217.5 76 t78.5 215q0 146 -78.5 231.5t-217.5 85.5t-217.5 -85.5t-78.5 -231.5zM360 1149q0 -119 66 -194q69 -80 189 -80h4q120 0 189 80q66 75 66 194q0 107 -67 172q-70 69 -190 69t-190 -69q-67 -65 -67 -172z" />
<glyph unicode="9" horiz-adv-x="1234" d="M129 1053q0 209 140 350t349 141q213 0 353 -139q137 -136 137 -334q0 -147 -49 -254q-51 -114 -242 -377l-319 -440h-211l462 633l-2 2q-70 -39 -159 -39q-197 0 -328 130.5t-131 326.5zM321 1059q0 -151 81 -235.5t216 -84.5q134 0 217.5 88.5t83.5 235.5t-82 231 t-219 84q-132 0 -214.5 -87t-82.5 -232z" />
<glyph unicode=":" horiz-adv-x="640" d="M194 101q0 53 36 89t88 36q53 0 89.5 -36t36.5 -89t-36.5 -89t-89.5 -36q-52 0 -88 36t-36 89zM194 944q0 53 36.5 89t88.5 36q53 0 89.5 -36t36.5 -89t-36.5 -90t-89.5 -37q-52 0 -88.5 37t-36.5 90z" />
<glyph unicode=";" horiz-adv-x="640" d="M106 -279l152 529h234l-275 -529h-111zM231 944q0 52 36.5 88.5t90.5 36.5q52 0 87.5 -36.5t35.5 -88.5q0 -53 -35.5 -90t-87.5 -37q-53 0 -90 37t-37 90z" />
<glyph unicode="&#x3c;" horiz-adv-x="1747" d="M262 580v89l1223 502v-141l-1002 -405l1002 -406v-139z" />
<glyph unicode="=" horiz-adv-x="1747" d="M262 385v123h1223v-123h-1223zM262 798v122h1223v-122h-1223z" />
<glyph unicode="&#x3e;" horiz-adv-x="1747" d="M262 80v139l1000 406l-1000 405v141l1223 -502v-89z" />
<glyph unicode="?" horiz-adv-x="1062" d="M157 1128v33q0 166 107 274.5t284 108.5q165 0 261 -102q93 -96 93 -250q0 -117 -55 -188q-59 -77 -248 -193q-213 -131 -213 -227q0 -59 41.5 -96t106.5 -37q155 0 155 163h168v-24q0 -126 -86 -201q-91 -78 -254 -78q-139 0 -224 82q-81 77 -81 195q0 96 65 169 q61 68 234 175q211 131 211 256q0 86 -49 138t-137 52q-203 0 -203 -250h-176zM394 84q0 51 36.5 87t88.5 36q53 0 89 -36t36 -87q0 -54 -35.5 -90.5t-89.5 -36.5q-52 0 -88.5 36.5t-36.5 90.5z" />
<glyph unicode="@" d="M112 548q0 338 202 589q295 367 791 367q337 0 564 -189q253 -208 253 -545q0 -358 -226 -561q-132 -119 -298 -119q-185 0 -185 164q-116 -164 -309 -164q-343 0 -343 387q0 229 137.5 396.5t337.5 167.5q195 0 281 -172l54 138h105l-136 -625q-18 -83 -18 -98 q0 -89 97 -89q95 0 188 79q88 75 140 211q50 132 50 279q0 281 -192.5 455t-506.5 174q-324 0 -551 -188q-306 -253 -306 -671q0 -363 225 -568q214 -194 564 -194q332 0 601 180l42 -82q-133 -97 -310 -152q-170 -52 -332 -52q-382 0 -629 212q-290 246 -290 670zM690 480 q0 -287 231 -287q112 0 203 85.5t119 222.5q43 207 43 204q-14 111 -78.5 171t-159.5 60q-160 0 -263 -143q-95 -133 -95 -313z" />
<glyph unicode="A" horiz-adv-x="1373" d="M-24 0l710 1553l711 -1553h-190l-183 416h-674l-184 -416h-190zM418 571h537l-269 607z" />
<glyph unicode="B" horiz-adv-x="1224" d="M180 0v1499h357q481 0 481 -366q0 -107 -51.5 -193t-137.5 -123q145 -37 223 -136.5t78 -242.5q0 -204 -137.5 -321t-382.5 -117h-430zM360 160h244q332 0 332 278q0 285 -328 285h-248v-563zM360 879h203q266 0 266 239q0 221 -278 221h-191v-460z" />
<glyph unicode="C" horiz-adv-x="1456" d="M105 750q0 329 225.5 561.5t552.5 232.5q298 0 501 -149v-209q-214 193 -501 193q-235 0 -412 -188t-177 -441q0 -262 164 -443q168 -185 423 -185q280 0 503 190v-209q-196 -147 -505 -147q-341 0 -560 230q-214 225 -214 564z" />
<glyph unicode="D" horiz-adv-x="1494" d="M180 0v1499h400q392 0 610 -223q199 -203 199 -526q0 -302 -176 -504q-214 -246 -633 -246h-400zM360 162h205q328 0 489 169q144 151 144 419q0 278 -160 432q-164 157 -468 157h-210v-1177z" />
<glyph unicode="E" horiz-adv-x="1112" d="M180 0v1499h818v-160h-636v-444h593v-157h-593v-576h636v-162h-818z" />
<glyph unicode="F" horiz-adv-x="958" d="M180 0v1499h729v-162h-547v-446h507v-159h-507v-732h-182z" />
<glyph unicode="G" horiz-adv-x="1556" d="M104 748q0 360 224.5 578t599.5 218q180 0 463 -114v-199q-284 147 -463 147q-277 0 -450 -161q-183 -171 -183 -469q0 -278 164 -448q171 -177 469 -177q154 0 289 51v463h-375v168h549v-754q-248 -94 -463 -94q-355 0 -583 207q-241 217 -241 584z" />
<glyph unicode="H" horiz-adv-x="1531" d="M180 0v1499h182v-602h807v602h181v-1499h-181v738h-807v-738h-182z" />
<glyph unicode="I" horiz-adv-x="556" d="M186 0v1499h184v-1499h-184z" />
<glyph unicode="J" horiz-adv-x="688" d="M0 -6v172q53 -31 137 -31q110 0 144 57q36 61 36 265v1042h185v-1050q0 -262 -73 -370q-78 -116 -273 -116q-71 0 -156 31z" />
<glyph unicode="K" horiz-adv-x="1250" d="M180 0v1499h180v-686l663 686h224l-702 -710l721 -789h-232l-674 769v-769h-180z" />
<glyph unicode="L" horiz-adv-x="882" d="M186 0v1499h182v-1337h505v-162h-687z" />
<glyph unicode="M" horiz-adv-x="1807" d="M71 0l227 1552l605 -1254l606 1254l228 -1552h-177l-139 1012l-518 -1066l-518 1066l-137 -1012h-177z" />
<glyph unicode="N" horiz-adv-x="1630" d="M180 0v1553l1093 -1158v1105h176v-1554l-1092 1159v-1105h-177z" />
<glyph unicode="O" horiz-adv-x="1811" d="M105 750q0 347 233 573q228 221 567 221t568 -221q234 -226 234 -573t-234 -573q-229 -222 -568 -222t-567 222q-233 226 -233 573zM298 750q0 -274 173.5 -452t433.5 -178q261 0 435 178t174 452q0 276 -173.5 452.5t-435.5 176.5q-261 0 -434 -176.5t-173 -452.5z" />
<glyph unicode="P" horiz-adv-x="1180" d="M182 0v1499h416q453 0 453 -403q0 -411 -453 -411h-234v-685h-182zM364 843h222q278 0 278 253q0 245 -278 245h-222v-498z" />
<glyph unicode="Q" horiz-adv-x="1844" d="M113 750q0 348 237 573q231 220 571 220q341 0 572 -220q237 -225 237 -573q0 -362 -255 -593l205 -234h-211l-122 143q-196 -111 -426 -111q-340 0 -571 221q-237 226 -237 574zM303 750q0 -278 179 -459q176 -178 439 -178q167 0 312 84l-299 349h207l219 -254 q179 177 179 458q0 280 -176.5 457t-441.5 177q-264 0 -439 -176q-179 -179 -179 -458z" />
<glyph unicode="R" horiz-adv-x="1134" d="M180 0v1499h416q457 0 457 -403q0 -369 -399 -403l474 -693h-223l-440 691h-103v-691h-182zM362 843h222q278 0 278 253q0 245 -278 245h-222v-498z" />
<glyph unicode="S" horiz-adv-x="1144" d="M69 425h192q0 -309 304 -309q146 0 226 80t80 217q0 103 -59 166q-66 69 -269 165q-212 100 -301 194q-95 101 -95 239q0 153 107 256q115 111 307 111q186 0 306 -96q125 -102 125 -270h-187q0 205 -240 205q-230 0 -230 -199q0 -95 63 -154t250 -146q241 -112 329 -213 q83 -96 83 -252q0 -199 -132 -329q-138 -135 -363 -135q-226 0 -362 131q-134 128 -134 339z" />
<glyph unicode="T" horiz-adv-x="1029" d="M12 1337v162h1005v-162h-411v-1337h-183v1337h-411z" />
<glyph unicode="U" horiz-adv-x="1424" d="M165 496v1003h182v-1003q0 -161 91 -264q99 -112 274 -112t275 112q91 103 91 264v1003h181v-1003q0 -237 -143 -385q-149 -156 -404 -156t-404 156q-143 148 -143 385z" />
<glyph unicode="V" horiz-adv-x="1242" d="M-5 1499h198l428 -1115l427 1115h198l-625 -1553z" />
<glyph unicode="W" horiz-adv-x="1936" d="M4 1500h178l351 -1099l435 1146l435 -1146l351 1099h178l-507 -1554l-457 1192l-456 -1192z" />
<glyph unicode="X" horiz-adv-x="1161" d="M6 0l475 792l-424 707h199l324 -555l324 555h200l-425 -707l475 -792h-199l-375 640l-374 -640h-200z" />
<glyph unicode="Y" horiz-adv-x="1130" d="M-6 1499h199l372 -651l372 651h199l-480 -809v-690h-182v690z" />
<glyph unicode="Z" horiz-adv-x="1107" d="M0 0l786 1337h-692v162h988l-788 -1337h771v-162h-1065z" />
<glyph unicode="[" horiz-adv-x="768" d="M170 -472v2129h477v-158h-300v-1814h300v-157h-477z" />
<glyph unicode="\" horiz-adv-x="852" d="M-23 1544h168l729 -1728h-165z" />
<glyph unicode="]" horiz-adv-x="768" d="M121 -315h300v1814h-300v158h477v-2129h-477v157z" />
<glyph unicode="^" horiz-adv-x="1024" d="M65 1068l346 453h204l344 -453h-195l-253 322l-251 -322h-195z" />
<glyph unicode="_" horiz-adv-x="1024" d="M-12 -317h1048v-153h-1048v153z" />
<glyph unicode="`" horiz-adv-x="512" d="M18 1513h266l176 -296h-169z" />
<glyph unicode="a" horiz-adv-x="1351" d="M98 522q0 242 149.5 401.5t380.5 159.5q253 0 376 -212l1 2v171h170v-1043h-170v173q-139 -214 -379 -214q-243 0 -389 164q-139 156 -139 398zM283 522q0 -175 100 -289q101 -117 260 -117q174 0 268 110.5t94 304.5q0 169 -98 282q-101 117 -258 117 q-159 0 -262.5 -114t-103.5 -294z" />
<glyph unicode="b" horiz-adv-x="1351" d="M176 0v1690h174v-664q0 -74 -6 -158h2q125 215 377 215q231 0 380.5 -160.5t149.5 -402.5t-140 -398q-146 -163 -388 -163q-241 0 -381 213v-172h-168zM344 530q0 -194 93 -302q95 -111 270 -111q157 0 258.5 115.5t101.5 287.5q0 180 -104 294t-263 114 q-157 0 -256.5 -114.5t-99.5 -283.5z" />
<glyph unicode="c" horiz-adv-x="1060" d="M98 520q0 243 164 403t416 160q173 0 307 -69v-189q-135 100 -301 100q-173 0 -285 -109q-116 -113 -116 -296t115 -293q111 -106 286 -106q170 0 301 103v-190q-148 -72 -307 -72q-253 0 -416.5 155t-163.5 403z" />
<glyph unicode="d" horiz-adv-x="1351" d="M98 520q0 242 149.5 402.5t380.5 160.5q250 0 375 -215l2 2q-5 95 -5 156v664h175v-1690h-170v172q-137 -213 -381 -213q-241 0 -387 163q-139 156 -139 398zM283 520q0 -172 101.5 -287.5t259.5 -115.5q175 0 269 111q92 108 92 302q0 169 -99 283.5t-256 114.5 q-158 0 -262.5 -114t-104.5 -294z" />
<glyph unicode="e" horiz-adv-x="1290" d="M98 522q0 240 156 400.5t396 160.5q242 0 393.5 -156t151.5 -405h-915q0 -183 98 -295q101 -115 272 -115q250 0 331 207h184q-126 -359 -515 -359q-253 0 -405 162q-147 156 -147 400zM294 651h716q-38 135 -137 213t-223 78q-122 0 -219 -77q-102 -80 -137 -214z" />
<glyph unicode="f" horiz-adv-x="562" d="M34 891v153h156v365q0 306 248 306q97 0 169 -25v-152q-63 28 -124 28q-120 0 -120 -175v-347h244v-153h-244v-891h-173v891h-156z" />
<glyph unicode="g" horiz-adv-x="1351" d="M98 523q0 246 142 402q146 158 384 158q243 0 383 -210v171h168v-1080q0 -578 -527 -578q-507 0 -507 426h179q0 -158 84 -221q74 -55 244 -55q354 0 354 428v64q0 76 3 154q-122 -217 -378 -217q-235 0 -382 153t-147 405zM283 523q0 -179 104.5 -292.5t262.5 -113.5 q157 0 258 116q99 112 99 281q0 197 -91 305q-94 111 -271 111q-159 0 -260.5 -114.5t-101.5 -292.5z" />
<glyph unicode="h" horiz-adv-x="1238" d="M176 0v1690h174v-680q0 -84 -3 -129q49 95 152 150q96 52 205 52q369 0 369 -433v-650h-173v637q0 293 -226 293q-139 0 -228 -95q-96 -104 -96 -284v-551h-174z" />
<glyph unicode="i" horiz-adv-x="526" d="M142 1388q0 53 35 88.5t86 35.5t85.5 -35.5t34.5 -88.5q0 -51 -34.5 -86t-85.5 -35q-50 0 -85.5 35t-35.5 86zM176 0v1057h174v-1057h-174z" />
<glyph unicode="j" horiz-adv-x="526" d="M142 1388q0 53 35 88.5t86 35.5t85.5 -35.5t34.5 -88.5q0 -51 -34.5 -86t-85.5 -35q-50 0 -85.5 35t-35.5 86zM176 -614v1671h174v-1671h-174z" />
<glyph unicode="k" horiz-adv-x="1086" d="M176 0v1690h173v-1098l434 452h229l-493 -487l575 -557h-233l-512 512v-512h-173z" />
<glyph unicode="l" horiz-adv-x="533" d="M179 -1v1691h174v-1691h-174z" />
<glyph unicode="m" horiz-adv-x="1806" d="M176 0v1044h166v-155q108 194 324 194q225 0 297 -198q51 92 146 147q89 51 185 51q346 0 346 -421v-662h-172v662q0 270 -192 270q-119 0 -196 -84q-85 -95 -85 -266v-582h-172v662q0 270 -194 270q-115 0 -192 -83q-89 -96 -89 -269v-580h-172z" />
<glyph unicode="n" horiz-adv-x="1231" d="M177 0v1044h167v-171q48 96 150 154q98 56 205 56q173 0 268 -110q100 -114 100 -336v-637h-174v625q0 305 -223 305q-138 0 -226 -95q-94 -103 -94 -284v-551h-173z" />
<glyph unicode="o" horiz-adv-x="1345" d="M98 522q0 240 162 400t413 160t412.5 -160t161.5 -400t-161.5 -400t-412.5 -160t-413 160t-162 400zM281 522q0 -183 119 -296q112 -107 273 -107t272 107q118 113 118 296t-118 296q-111 107 -272 107t-273 -107q-119 -113 -119 -296z" />
<glyph unicode="p" horiz-adv-x="1351" d="M176 -614v1658h173v-171q138 212 380 212t386 -164q138 -155 138 -398q0 -242 -148 -402.5t-379 -160.5q-253 0 -377 215q4 -145 4 -157v-632h-177zM346 514q0 -168 100 -282t257 -114q159 0 262 112.5t103 292.5q0 178 -100 293.5t-260 115.5q-169 0 -265.5 -111 t-96.5 -307z" />
<glyph unicode="q" horiz-adv-x="1351" d="M98 523q0 243 141 400q146 162 383 162q243 0 381 -212v171h172v-1658h-177v632v-3q1 0 5 160q-124 -215 -378 -215q-234 0 -380.5 155t-146.5 408zM284 523q0 -179 103 -292t261 -113q157 0 258 115q99 112 99 281q0 197 -91 306q-94 112 -271 112q-157 0 -258 -117 t-101 -292z" />
<glyph unicode="r" horiz-adv-x="782" d="M180 0v1044h173v-163q99 196 276 196q65 0 129 -33v-162q-62 39 -131 39q-111 0 -181 -78q-88 -98 -88 -300v-543h-178z" />
<glyph unicode="s" horiz-adv-x="943" d="M80 309h171q0 -197 235 -197q98 0 153 51q50 47 50 121q0 78 -44 116.5t-185 83.5q-186 59 -254 122q-72 68 -72 195q0 132 112 210q101 70 247 70q120 0 216 -75q109 -84 109 -218h-165q0 149 -169 149q-181 0 -181 -142q0 -60 39 -95t155 -71q189 -59 267 -121 q103 -83 103 -223t-96 -229q-102 -94 -283 -94q-408 0 -408 347z" />
<glyph unicode="t" horiz-adv-x="540" d="M41 891v153h140v354h173v-354h211v-153h-211v-891h-173v891h-140z" />
<glyph unicode="u" horiz-adv-x="1201" d="M166 414v631h173v-629q0 -301 262 -301t262 301v628h172v-630q0 -200 -103 -320q-115 -132 -331 -132t-331 132q-104 120 -104 320z" />
<glyph unicode="v" horiz-adv-x="991" d="M-10 1044h184l321 -733l321 733h185l-506 -1092z" />
<glyph unicode="w" horiz-adv-x="1554" d="M0 1044h183l269 -714l325 756l325 -756l269 714h183l-437 -1092l-340 803l-340 -803z" />
<glyph unicode="x" horiz-adv-x="1000" d="M3 0l400 536l-376 508h195l279 -378l278 378h194l-375 -508l399 -536h-200l-296 411l-297 -411h-201z" />
<glyph unicode="y" horiz-adv-x="1100" d="M8 1044h190l379 -827l345 827h184l-700 -1658h-187l266 627z" />
<glyph unicode="z" horiz-adv-x="972" d="M23 0l604 891h-553v153h850l-600 -888h591v-156h-892z" />
<glyph unicode="{" horiz-adv-x="1024" d="M123 490v151h74q116 0 166 58t50 196v349q0 226 70 313q78 98 295 98h84v-156h-76q-121 0 -155.5 -43.5t-34.5 -187.5v-349q0 -152 -36 -229q-39 -83 -137 -124q98 -40 137 -122q36 -77 36 -229v-351q0 -143 32 -185q35 -45 154 -45h80v-156h-84q-216 0 -295 99 q-70 87 -70 311v349q0 140 -50.5 196.5t-169.5 56.5h-70z" />
<glyph unicode="|" horiz-adv-x="1024" d="M440 -491v2088h144v-2088h-144z" />
<glyph unicode="}" horiz-adv-x="1024" d="M162 -366h80q119 0 154 45q32 42 32 185v351q0 152 36 229q39 82 137 122q-98 41 -137 124q-36 77 -36 229v349q0 144 -33 186q-36 45 -157 45h-76v156h84q217 0 295 -98q70 -87 70 -313v-349q0 -138 50 -196t166 -58h74v-151h-70q-119 0 -169.5 -56.5t-50.5 -196.5v-349 q0 -224 -70 -311q-79 -99 -295 -99h-84v156z" />
<glyph unicode="~" horiz-adv-x="1312" d="M114 644v161q118 108 255 108q85 0 297 -80q218 -82 273 -82q134 0 259 119v-166q-118 -104 -257 -104q-78 0 -294 81q-212 80 -278 80q-134 0 -255 -117z" />
<glyph unicode="&#xa0;" />
<glyph unicode="&#xa1;" />
<glyph unicode="&#xa2;" />
<glyph unicode="&#xa3;" />
<glyph unicode="&#xa4;" horiz-adv-x="1234" d="M58 442l207 207q-87 119 -87 256q0 139 87 261l-207 204l93 94l209 -210q120 83 256 83q133 0 257 -83l209 210l93 -94l-207 -204q87 -122 87 -261q0 -137 -86 -251l206 -212l-93 -94l-208 209q-120 -82 -258 -82q-132 0 -256 82l-209 -209zM318 909q0 -131 87 -217 t215 -86q125 0 212 87t87 216q0 128 -86.5 213t-212.5 85t-214 -85.5t-88 -212.5z" />
<glyph unicode="&#xa5;" />
<glyph unicode="&#xa6;" horiz-adv-x="1024" d="M440 -354v789h144v-789h-144zM440 673v789h144v-789h-144z" />
<glyph unicode="&#xa7;" horiz-adv-x="1071" d="M98 543q0 117 66 210.5t182 139.5q-196 95 -196 295q0 153 109 248.5t288 95.5q178 0 276.5 -94t98.5 -262v-41h-189q0 241 -194 241q-88 0 -139.5 -48.5t-51.5 -133.5q0 -100 59 -150q43 -36 183 -86q209 -75 296 -168.5t87 -240.5q0 -266 -244 -361q197 -100 197 -303 q0 -147 -109 -246.5t-274 -99.5q-173 0 -278 98.5t-105 260.5v45h182q0 -244 199 -244q192 0 192 203q0 89 -58 136q-40 32 -179 85q-236 90 -312 165q-86 86 -86 255zM291 543q0 -115 75 -188q70 -68 171 -68q103 0 174 74t71 182t-74 180t-180 72q-103 0 -170 -71.5 t-67 -180.5z" />
<glyph unicode="&#xa8;" />
<glyph unicode="&#xa9;" horiz-adv-x="1603" d="M71 727q0 303 215 522q211 215 513 215q303 0 522 -218q211 -210 211 -519q0 -304 -211 -511q-223 -219 -522 -219q-296 0 -514 219q-214 215 -214 511zM158 729q0 -264 187.5 -452.5t454.5 -188.5q264 0 459 191q186 182 186 450t-188 456t-457 188t-451 -185 q-191 -194 -191 -459zM415 729q0 205 106.5 327.5t285.5 122.5q137 0 229.5 -74t103.5 -192h-132q-32 164 -207 164q-115 0 -179 -91.5t-64 -256.5q0 -161 65.5 -252.5t180.5 -91.5q85 0 142.5 49t73.5 134h131q-10 -128 -108.5 -208.5t-245.5 -80.5q-176 0 -279 121.5 t-103 328.5z" />
<glyph unicode="&#xaa;" />
<glyph unicode="&#xab;" horiz-adv-x="1024" d="M137 553l228 369h147l-195 -369l195 -369h-147zM514 553l227 369h148l-195 -369l195 -369h-148z" />
<glyph unicode="&#xac;" horiz-adv-x="1484" d="M155 774v147h1127v-482h-153v335h-974z" />
<glyph unicode="&#xad;" horiz-adv-x="768" d="M159 431v164h450v-164h-450z" />
<glyph unicode="&#xae;" horiz-adv-x="1602" d="M70 729q0 259 180 474q218 260 548 260q305 0 523 -219q211 -212 211 -515q0 -306 -213 -515q-221 -217 -521 -217q-297 0 -515 220q-213 214 -213 512zM158 730q0 -263 188 -453t452 -190q262 0 458 191q188 183 188 448q0 269 -186 456q-190 191 -459 191 q-266 0 -448 -184q-193 -195 -193 -459zM508 323v837h311q349 0 349 -233q0 -87 -52.5 -146.5t-142.5 -73.5l186 -384h-159l-174 363h-175v-363h-143zM651 779h145q126 0 176 32.5t50 112.5q0 140 -230 140h-141v-285z" />
<glyph unicode="&#xaf;" />
<glyph unicode="&#xb0;" horiz-adv-x="664" d="M69 1276q0 109 77 186.5t186 77.5t186 -77.5t77 -186.5q0 -110 -76.5 -187t-186.5 -77q-109 0 -186 77t-77 187zM181 1276q0 -63 44.5 -107.5t106.5 -44.5q61 0 106.5 45t45.5 107q0 60 -45.5 105.5t-106.5 45.5t-106 -45.5t-45 -105.5z" />
<glyph unicode="&#xb1;" horiz-adv-x="1747" d="M260 41v120h1227v-120h-1227zM260 736v120h552v353h121v-353h554v-120h-554v-352h-121v352h-552z" />
<glyph unicode="&#xb2;" />
<glyph unicode="&#xb3;" />
<glyph unicode="&#xb4;" />
<glyph unicode="&#xb5;" horiz-adv-x="1104" d="M-88 -416l292 1457h171l-102 -524q-23 -118 -23 -177q0 -225 208 -225q227 0 308 392l111 534h172l-145 -728q-14 -25 -24 -127q0 -71 39 -71q3 0 10.5 -6t11.5 -6l-16 -93q-3 -11 -8 -22q-17 0 -35 -1q-6 0 -12 -1h-33q-12 0 -25 -1q0 15 -3 30v6q-38 -49 -88 -49 q-61 0 -86 34q-14 18 -17 48q-2 12 -1 25q0 7 0 5q-73 -106 -230 -95q-143 9 -198 132l-104 -537h-173z" />
<glyph unicode="&#xb6;" horiz-adv-x="1032" d="M76 1157q0 161 111 260t292 99h492v-81h-127v-1435h-98v1435h-187v-1435h-97v802q-177 7 -281.5 103.5t-104.5 251.5z" />
<glyph unicode="&#xb7;" horiz-adv-x="616" d="M180 737q0 53 37.5 89.5t90.5 36.5t89.5 -36.5t36.5 -89.5t-36.5 -90.5t-89.5 -37.5t-90.5 37.5t-37.5 90.5z" />
<glyph unicode="&#xb8;" />
<glyph unicode="&#xb9;" />
<glyph unicode="&#xba;" />
<glyph unicode="&#xbb;" horiz-adv-x="1024" d="M135 184l195 369l-195 369h148l227 -369l-227 -369h-148zM512 184l195 369l-195 369h147l228 -369l-228 -369h-147z" />
<glyph unicode="&#xbc;" />
<glyph unicode="&#xbd;" />
<glyph unicode="&#xbe;" />
<glyph unicode="&#xbf;" />
<glyph unicode="&#xc0;" />
<glyph unicode="&#xc1;" />
<glyph unicode="&#xc2;" />
<glyph unicode="&#xc3;" />
<glyph unicode="&#xc4;" />
<glyph unicode="&#xc5;" />
<glyph unicode="&#xc6;" />
<glyph unicode="&#xc7;" />
<glyph unicode="&#xc8;" />
<glyph unicode="&#xc9;" />
<glyph unicode="&#xca;" />
<glyph unicode="&#xcb;" />
<glyph unicode="&#xcc;" />
<glyph unicode="&#xcd;" />
<glyph unicode="&#xce;" />
<glyph unicode="&#xcf;" />
<glyph unicode="&#xd0;" />
<glyph unicode="&#xd1;" />
<glyph unicode="&#xd2;" />
<glyph unicode="&#xd3;" />
<glyph unicode="&#xd4;" />
<glyph unicode="&#xd5;" />
<glyph unicode="&#xd6;" />
<glyph unicode="&#xd7;" horiz-adv-x="1747" d="M297 141l485 484l-485 485l94 91l483 -484l484 484l94 -91l-485 -485l485 -484l-94 -90l-484 481l-483 -481z" />
<glyph unicode="&#xd8;" />
<glyph unicode="&#xd9;" />
<glyph unicode="&#xda;" />
<glyph unicode="&#xdb;" />
<glyph unicode="&#xdc;" />
<glyph unicode="&#xdd;" />
<glyph unicode="&#xde;" />
<glyph unicode="&#xdf;" />
<glyph unicode="&#xe0;" />
<glyph unicode="&#xe1;" />
<glyph unicode="&#xe2;" />
<glyph unicode="&#xe3;" />
<glyph unicode="&#xe4;" />
<glyph unicode="&#xe5;" />
<glyph unicode="&#xe6;" />
<glyph unicode="&#xe7;" />
<glyph unicode="&#xe8;" />
<glyph unicode="&#xe9;" />
<glyph unicode="&#xea;" />
<glyph unicode="&#xeb;" />
<glyph unicode="&#xec;" />
<glyph unicode="&#xed;" />
<glyph unicode="&#xee;" />
<glyph unicode="&#xef;" />
<glyph unicode="&#xf0;" />
<glyph unicode="&#xf1;" />
<glyph unicode="&#xf2;" />
<glyph unicode="&#xf3;" />
<glyph unicode="&#xf4;" />
<glyph unicode="&#xf5;" />
<glyph unicode="&#xf6;" />
<glyph unicode="&#xf7;" horiz-adv-x="1747" d="M260 578v123h1228v-123h-1228zM757 266q0 48 34.5 83.5t82.5 35.5q49 0 83.5 -35t34.5 -84q0 -48 -34.5 -82.5t-83.5 -34.5q-48 0 -82.5 34.5t-34.5 82.5zM757 1013q0 48 34.5 83.5t82.5 35.5q49 0 83.5 -35t34.5 -84q0 -48 -34.5 -83t-83.5 -35q-48 0 -82.5 35t-34.5 83 z" />
<glyph unicode="&#x152;" />
<glyph unicode="&#x153;" />
<glyph unicode="&#x178;" />
<glyph unicode="&#x2c6;" />
<glyph unicode="&#x2dc;" />
<glyph unicode="&#x2000;" horiz-adv-x="895" />
<glyph unicode="&#x2001;" horiz-adv-x="1791" />
<glyph unicode="&#x2002;" horiz-adv-x="895" />
<glyph unicode="&#x2003;" horiz-adv-x="1791" />
<glyph unicode="&#x2004;" horiz-adv-x="597" />
<glyph unicode="&#x2005;" horiz-adv-x="447" />
<glyph unicode="&#x2006;" horiz-adv-x="298" />
<glyph unicode="&#x2007;" horiz-adv-x="298" />
<glyph unicode="&#x2008;" horiz-adv-x="223" />
<glyph unicode="&#x2009;" horiz-adv-x="358" />
<glyph unicode="&#x200a;" horiz-adv-x="99" />
<glyph unicode="&#x2010;" horiz-adv-x="768" d="M159 431v164h450v-164h-450z" />
<glyph unicode="&#x2011;" horiz-adv-x="768" d="M159 431v164h450v-164h-450z" />
<glyph unicode="&#x2012;" horiz-adv-x="768" d="M159 431v164h450v-164h-450z" />
<glyph unicode="&#x2013;" horiz-adv-x="1024" d="M-12 498v139h1048v-139h-1048z" />
<glyph unicode="&#x2014;" d="M-12 498v139h2072v-139h-2072z" />
<glyph unicode="&#x2018;" horiz-adv-x="600" d="M102 1016l275 528h110l-151 -528h-234z" />
<glyph unicode="&#x2019;" horiz-adv-x="600" d="M102 1016l152 528h233l-274 -528h-111z" />
<glyph unicode="&#x201a;" horiz-adv-x="600" d="M111 -233l151 528h234l-275 -528h-110z" />
<glyph unicode="&#x201c;" horiz-adv-x="938" d="M98 1016l275 528h110l-151 -528h-234zM451 1016l274 528h111l-152 -528h-233z" />
<glyph unicode="&#x201d;" horiz-adv-x="938" d="M98 1016l152 528h233l-274 -528h-111zM451 1016l151 528h234l-275 -528h-110z" />
<glyph unicode="&#x201e;" horiz-adv-x="938" d="M98 -233l152 528h233l-274 -528h-111zM451 -233l151 528h234l-275 -528h-110z" />
<glyph unicode="&#x2022;" horiz-adv-x="1237" d="M315 780q0 125 89 213t214 88q123 0 213.5 -89t90.5 -212q0 -124 -90.5 -214.5t-215.5 -90.5t-213 90t-88 215z" />
<glyph unicode="&#x2026;" d="M228 104q0 54 37.5 91t90.5 37t89.5 -37t36.5 -91q0 -53 -36.5 -89t-89.5 -36t-90.5 36t-37.5 89zM894 104q0 54 37.5 91t90.5 37t89.5 -37t36.5 -91q0 -53 -36.5 -89t-89.5 -36t-90.5 36t-37.5 89zM1565 104q0 54 38 91t91 37t89.5 -37t36.5 -91q0 -53 -36.5 -89 t-89.5 -36q-54 0 -91.5 36t-37.5 89z" />
<glyph unicode="&#x202f;" horiz-adv-x="358" />
<glyph unicode="&#x2039;" horiz-adv-x="645" d="M135 553l227 369h148l-195 -369l195 -369h-148z" />
<glyph unicode="&#x203a;" />
<glyph unicode="&#x205f;" horiz-adv-x="447" />
<glyph unicode="&#x2122;" horiz-adv-x="1953" d="M237 1416v83h544v-83h-214v-581h-113v581h-217zM936 835v664h160l199 -507l187 507h161v-664h-101v572l-215 -572h-64l-226 572v-572h-101z" />
<glyph unicode="&#x25fc;" horiz-adv-x="1045" d="M0 0v1045h1045v-1045h-1045z" />
</font>
</defs>
</svg>
